[Login] or [Signup]
Login
Username:
Password:
[Signup]
[Recover Account]


Poll


You must be logged in to view polls



Torrent Details For "Guru (2018 - South Hindi Dubbed) - HDTVRip[Mp4 - AAC3(5.1Ch)] - 450 MB"

Guru (2018 - South Hindi Dubbed) - HDTVRip[Mp4 - AAC3(5.1Ch)] - 450 MB

Download this torrent | Magnet Download
Health:
Seeds: 24
Leechers: 35
Completed: 31 
Last Checked: 21-10-2018 19:32:31
External Torrent
Update Stats
Download Magnet


Poster


iMDB
Imdb Picture Title: Guru
Year: 2017
Runtime: 116 minutes
Votes: 311
Rating: 8.6/10
Language: Telugu
Country: India
All Genres: Action, Drama, Sport
Plot Outline: A curmudgeonly boxing coach sees the potential in a young woman; his belief in her changes her life.
Director: Sudha Kongara
Writing By: Harshavardhan,Sudha Kongara,Sudha Kongara,
Produced By: Chakravarthy Ramachandra,S. Sashikanth,
Music: Santhosh Narayanan
Plot:

A curmudgeonly boxing coach sees the potential in a young woman; his belief in her changes her life.

- Written by Kiran Mascarenhas
Cast:
Venkatesh Daggubati as Adi
Ritika Singh as Rameshwari (Ramudu)
Mumtaz Sorcar as Lakshmi (Lux)
Nassar as Punch Ponds
Zakir Hussain as Dev Khatri
Tanikella Bharani as Murali
Raghu Babu as Somulu
Bipin as Innocent
Anitha Chowdary as Rajyam


Watch-Free-HD     Download

Details
Name:Guru (2018 - South Hindi Dubbed) - HDTVRip[Mp4 - AAC3(5.1Ch)] - 450 MB
Description:
   Guru (2018 - South Hindi Dubbed) -
HDTVRip[Mp4 - AAC3(5.1Ch)] - 450 MB    
 







General
Format                                   : MPEG-4
Format profile                           : Base Media
Codec ID                                 : isom (isom)
File size                                : 451 MiB
Duration                                 : 1 h 48 min

Video
ID                                       : 1
Format                                   : AVC
Format/Info                              : Advanced Video Codec
Format profile                           : [email protected]
Format settings                          : CABAC / 4 Ref Frames
Format settings, CABAC                   : Yes
Format settings, RefFrames               : 4 frames
Codec ID                                 : avc1
Codec ID/Info                            : Advanced Video Coding
Duration                                 : 1 h 48 min
Bit rate                                 : 496 kb/s
Maximum bit rate                         : 2 035 kb/s
Width                                    : 640 pixels
Height                                   : 272 pixels
Display aspect ratio                     : 2.35:1
Frame rate mode                          : Constant
Frame rate                               : 25.000 FPS
Color space                              : YUV
Chroma subsampling                       : 4:2:0
Bit depth                                : 8 bits
Scan type                                : Progressive
Bits/(Pixel*Frame)                       : 0.114
Stream size                              : 386 MiB (86%)

Audio
ID                                       : 2
Format                                   : AAC LC SBR
Commercial name                          : HE-AAC
Format settings                          : Explicit
Codec ID                                 : mp4a-40-2
Duration                                 : 1 h 48 min
Bit rate mode                            : Variable
Bit rate                                 : 79.8 kb/s
Maximum bit rate                         : 87.2 kb/s
Channel(s)                               : 6 channels
Channel layout                           : C L R Ls Rs LFE
Sampling rate                            : 48.0 kHz
Stream size                              : 62.1 MiB (14%)



 Thumbnail  



Category:Movies > South Dub
Lang:Hindi
Total Size:450.54 MB
Info Hash:c2a4354105fd9107a2d5de20cd9659391141efe1
Added By:CyberTron
Date Added:20-10-2018 11:07:56
Views:513
Hits:22

Download Torrent

Ratings:Not Yet Rated (Log in to rate it)

  


Tracker:
udp://tracker.trackerfix.com:80/announce


File List: 


Comments

No comments still posted

Powered by 10 Hamsters v2-svn -|- Page Generated In 1.121524 secs.
-|- RSS FEED
Theme By: Nikkbu
Joe Dempsie | Solo A Star Wars Story | 3 Percent